Marvin Gaye Let's Get It On (Motown, 1973) Sex is the hardest thing to write pop songs about. 8MHz/64fs Download DSD Multichannel 2. Michael McDonald - Motown Two (2004) {SACD ISO + FLAC 24bit/88,2kHz} Posted by mqs / Posted 4 years ago September 1, 2016 Michael McDonald - Motown Two (2004) [2. By the end of 1965, Berry Gordy was scouting to get the group signed to his fabled Motown Records label. Tracklist: Disc 1: 1 End Of The RoadBoyz II Men 2 Isn’t She LovelyStevie Wonder 3 HelloLionel Richie 4 Where Is The LoveRita Wright 5 How Sweet It Is (To Be Loved By You)Marvin Gaye 6 I Second That EmotionSmokey Robinson & The Miracles 7 Remember MeDiana Ross. Mary Wells - Please Forgive Me 3. The selections on this compilation were transferred from the original single mixes, which were mixed for AM radio play and 45 RPM singles. "Fate knows the answer that you'd like to know…might as well face him in style…" 1981's To Love Again was an interesting half-new, half-compilation album that traced the musical partnership between Diana Ross and writer-produced Michael Masser. Posts about Previously Unreleased Tracks written by Paul. Each 11-minute episode incorporates a plotline inspired by the themes and characters of a classic Motown song, and an original version of that song covered. 9 Votes: 476 Other formats: APE WMA AAC DMF AUD DTS. In Our Small Way - 03:41 5. Various - Motown Hits Of Gold Vol. Losslessdl - Download High Definition Music Free. flac 20 Neither One Of Us (Wants To Be The First To Say Goodbye). Are Ya Gonna Eat That? 7. 13MB ) Motown Singles - CD16-25 - The Hornets - She's My Baby. Mix - [HQ-FLAC] Michael Jackson - Billie Jean YouTube. 9 comments: Email This BlogThis! Share to Twitter Share to Facebook Share to Pinterest. Artist: VA Title: Motown: The Early Years 1959-62 Year Of Release: 2020 Label: Acrobat Records Genre: Soul, Rhythm and Blues, Pop Quality: FLAC (tracks) Total Time: 03:32:40 Total Size: 847 mb. 🎧 Motown Jazz Playlist 🎧 00:00 Let's Stay Together. flac 03 - Hello. These Motown instrumental songs are jazz music at it's best - a great combination of classic songs, jazz saxophone, excellent vibe, and real soul. Ivy Jo - It's Love I Need. 36 MB Blue-eyed soul crooner Michael McDonald gave his career a much-needed shot in the arm with 2003's Motown, a commercially well-received collection that matched the one-time Doobie Brother and '80s solo star's rich vocals. 0 Total Size: 3. cue), lossless Since the arrival of Erykah Badu onto the neo-soul scene back in 1997 with Baduizm, commercial music stood up and took notice with an onslaught of similar artists reaching comparable peaks of mainstream success. 12A 1972 (2013) + flac 14 Days Free Access to USENET! Free 300 GB with Full DSL-Broadband Speed!. 9: 1969 by Various Artists in mp3, FLAC, ogg, zip album and other supported formats. Tracklist: Disc 1: 1 End Of The RoadBoyz II Men 2 Isn't She LovelyStevie Wonder 3 HelloLionel Richie 4 Where Is The LoveRita Wright 5 How Sweet It Is (To Be Loved By You)Marvin Gaye 6 I Second That EmotionSmokey Robinson & The Miracles 7 Remember MeDiana Ross. 磁力文件Kim Weston - The Motown Anthology (2005) [flac]创建于2019-06-08,大小为804. Ain't Nobody Debut EP from Soul Tubes: Five trombones who play Funk, Soul & Motown!. Mary Wells - I Don't Want To Take A Chance 4. Motown People. "Freak Flag". Are Ya Gonna Eat That? 7. Year Of Release: 2019 Format: Flac, Tracks Bitrate: lossless, 24bit Sample Rate: 48000Hz Audio Channels: 2. Format: VBR V0 MP3, FLAC [View Comments To Listen] Following Second To Nunn in 1983 comes Private Party, singer/songwriter Bobby Nunn's sophomore effort for Motown Records. 8224 MHz | 56:15 minutes | Scans included | 4,04 GBor FLAC 2. 1 kHz (Tracks) Artist: Various Artists. FLAC 16 bit / Soul / Funk / RnB / Collection Best Hits 1-11-2019, 03:10 589 0 aleXs All albums Various Motown Quality: FLAC 16 bit / 44. Hobos Locos! by Motown Stompers, released 10 November 2015 1. Pink Floyd - Another Brick In. A central player in Detroit since the days of the Direct Drive DJ tag team, Mr Clark is hot property - it was Clark who programmed the drums on early UR material, fuelling Mike Banks' Red Planet series, going on to release on Planet E amongst others. Album The Complete Motown Albums Umělec Rick James Ke stažení ve formátu MP3 a FLAC Obsahuje hity ♫ 17 ♫ Glow ♫ Unity Ukázky zdarma k poslechu. Year Of Release: 2019 Format: Flac, Tracks Bitrate: lossless, 24bit Sample Rate: 48000Hz Audio Channels: 2. Artist: Various Album's title: The Tamla - Motown Sound! Label: Tamla Motown ‎- 5C 048-90836, Tamla Motown ‎- STML 11055 Type: Vinyl, LP, Compilation, Reissue, Stereo Country: Netherlands Date of released: Category: Funk / Soul Style: Soul ZIP Size MP3: 1689 mb ZIP Size FLAC: 1860 mb Rating: 4. Each 11-minute episode incorporates a plotline inspired by the themes and characters of a classic Motown song, and an original version of that song covered. Motown Anthems 2012 [EAC - FLAC](oan) Profile: Motown is a record company originally founded by Berry Gordy, Jr. Download new club compilation Motown Greatest Hits (2019) MP3 from Clubmusicdownload. Fast Break was not a successful film, but the single was released on Motown in Europe and started to sell, entering the UK charts on 15 December 1979 in the anchor position of the top 75. DeBarge - Time Will Reveal: The Complete Motown Albums [3CD] (2011) R&B, Soul/Funk, Pop, Motown | EAC Rip | FLAC, Tracks+CUE+LOG+Scans (JPEG) | 03:28:29 h. Motown Greatest Hits Year Of Release: 2019 Genre: Soul Format: Flac, Tracks +. VA - The Complete Motown Singles - Vol. Download Motown Legends - Volume 3 - 1995 [FLAC] [RLG] torrent or any other torrent from Lossless category. It was his last album on the Gordy Records imprint of Motown Records. Buy Walking Through Motown EP by Subradeon on Bleep. The 3CD version of the album features legendary Motown artists including The Supremes, Marvin Gaye, Temptations, Four Tops, Stevie Wonder, Diana Ross, The Jackson 5 and Lionel Richie. Michael McDonald never disguises what his seventh solo album is: the title Motown makes it clear that this 2003 effort is a tribute to the glory days of Berry Gordy's Detroit empire. The Elgins - The Motown Anthology (2007) FLAC Dionne Warwick - Collection 1963-1977 (23 Albums Mini LP CD Remastered) (2013) FLAC La Soul C'etait Mieux Avant (5CD) (2017) FLAC. All music Various Motown. Various - Tamla Motown Serie Discoteca Vol. November 2010 EAC extraction logfile from 23. Various - Tamla Motown 45 - latest mp3, flac album version. The Supremes / Baby Love / The Collection Жанр: Soul, R&B, Pop/Rock, Motown Страна-производитель диска: UK Год издания: 2012 Издатель (лейбл): Spectrum Music Номер по каталогу: SPEC2086 Страна: USA Аудиокодек: FLAC (*. 1133 downloads at 15 mb/s. Release information about Michael_Mcdonald-Motown_Two-CD-FLAC-2004-FLACME. Various - Motown Hits Of Gold Vol. Christine Elizabeth Clark (born February 1, 1946), better known as Chris Clark, is an American soul, jazz, and blues singer, who recorded for Motown Records. Albums related to A Loss For Words - Motown Classics. flac" WAVE TRACK 19 AUDIO TITLE "I'll Be There" PERFORMER "The Jackson 5" INDEX 01 00:00:00. C) Motown a Division of UM. I Wanna Be Where You Are - 03:02 3. flac" WAVE TRACK 19 AUDIO TITLE "I'll Be There" PERFORMER "The Jackson 5" INDEX 01 00:00:00. Motown Greatest Hits Year Of Release: 2019 Genre: Soul Format: Flac, Tracks +. 1's Disc3\19 - I'll Be There. 76MB ) Motown Singles - CD61-01- Messengers - That's The Way A Woman Is. Charles Davis 1933 - 2016. 2MHz/256fs Download DSD (Single Rate) 2. All music Various Motown. Written and produced by Motown's main production team Holland-Dozier-Holland, the song was the group's first Motown single and their first pop Top 20 hit, making it to number eleven on the Billboard Hot 100 in the fall of 1964. Genres: FLAC 16 bit / Soul / Funk / RnB / Collection Best Hits 10-11-2019, 12:02 391 aleXs. Album The Complete Motown Albums Umělec Rick James Ke stažení ve formátu MP3 a FLAC Obsahuje hity ♫ 17 ♫ Glow ♫ Unity Ukázky zdarma k poslechu. Various - Największe Hity Przebojów Kinowych FLAC album ZIP archive. Known for what author Bill Dahl calls a "holy-roller brand of gymnastic, fire-breathing excitement," the Isley Brothers have big hits both before and after their three-year Motown tenure (1965-1968), but their recordings for Berry Gordy's company are beloved by aficionados for perfectly blending the New Jersey-based group's gospel-like fury with the Detroit Sound. Mike Clark follows up the 'Detroit Beatdown' collection with this funk dripped four tracker. Artist: VA Title: Motown: The Early Years 1959-62 Year Of Release: 2020 Label: Acrobat Records Genre: Soul, Rhythm and Blues, Pop Quality: FLAC (tracks) Total Time: 03:32:40 Total Size: 847 mb. VA - 101 Motown Anthems (2017) EAC Rip | FLAC (tracks & cue & log) -> 2. Hello! Please login. Hard Day's Night - The Supremes 2. 3 flac download Various - Motown's Biggest Pop Hits: All #1 On Billboard's Charts flac download Diana Ross - Free Soul. This Masquerade 7. Freedom Records Jazz Jazz albums in mp3 and flac. Quality: FLAC 16 bit / 44. Korn - Korn Rock music. Diana Ross - All The Great Hits [Motown 1965-1981, 320 kbps]. com - Available in 96 kHz / 24-bit AIFF, FLAC high resolution audio formats,. Michael McDonald - Motown (2003) PS3 Rip | SACD ISO | DST 64 2. Hallelujah I Love Her So 2. Motown Anthems 2012 [EAC - FLAC](oan) Profile: Motown is a record company originally founded by Berry Gordy, Jr. 6MHz/128fs Download DSD (Quad Rate) 11. Ne-Yo - Another Kind Of Christmas (2019) {Compound Entertainment/Motown} EAC Rip | FLAC | scans | 235 mb MP3 CBR 320 kbps | RAR | 83 mb Genre: Christmas, soul, R&B. 14:25 Ain't No Woman (Like The One I Got) 20:40 Inner City Blues. She later co-wrote the screenplay for the 1972 motion picture Lady Sings. Diana Ross & The Supremes - Farewell download flac; Diana Ross And The Supremes - Reflections download flac. Got To Be There - 03:24 6. Motown Greatest Hits Year Of Release: 2019 Genre: Soul Format: Flac, Tracks +. LiveMJHighDefinition 4,200,982 views. Info Artist : VA Name : Motown 50 Greatest Hits Collection Vol 1 - 8 Label : Motown. VA - The Complete Motown Singles - Vol. This superb box set spanning the years 1970-1976 features five original Motown albums and one album (1974’s “Jr. Pink Floyd - Another Brick In. The singer's fourth and final album for Motown, IT MUST BE MAGIC--her second fully self-written, self-produced effort--oversaw Marie's true creative emancipation. 48MB The Complete Motown Singles Volume 03 (1963) Disc. 1 GB | Covers included | 05:53:15 Genre: Soul, R&B, Funk, Disco | Label: Spectrum Music / Universal 101 Motown Anthems Various Artists INCLUDING The Jackson 5, The Supremes, Martha & the Vandellas, Marvin Gaye, Diana Ross, The Isley Brothers, Smokey Robinson & the Miracles, The Four Tops, Stevie Wonder, The. The Contours - Do You Love Me. Motown Greatest Hits Year Of Release: 2019 Genre: Soul Format: Flac, Tracks +. Walk In The Night: The Motown 70s Studio Albums by Jr. 5 MB: 0: 0: unknown: Hitsville USA-The Motown Singles Collection -VA 1992-2000 FLAC Tracks Lossless: Today: 3. VA - Hitsville USA: The Motown Singles Collection Vol. "Play Me Some Motown"on the Dayton Soul Rhythm label; will surely do the job, transporting your mind. Barrett Strong - Money (That's What I Want). During this time, the group recorded more hit singles, including "I Feel a Song (In My Heart)", "Part-Time Love", "Love Finds Its Own Way" and the live recording, "The Way We Were/Try to Remember". Download Motown Anthems [4CD Box Set] (2012) FLAC or any other file from Music category. The 3CD version of the album features legendary Motown artists including The Supremes, Marvin Gaye, Temptations, Four Tops, Stevie Wonder, Diana Ross, The Jackson 5 and Lionel Richie. I'm Not The Only One by Sam Smith. 24 GB 2019 marks the 60th year of MOTOWN, widely regarded as the greatest, most successful and best loved record label in music and to commemorate this landmark anniversary Motown will be issuing a brand new Greatest Hits compilation. Buy Walking Through Motown EP by Subradeon on Bleep. 1kHz] 3 CDS (2008) FLAC R & B 11-09-2019, 07:40 The Stephen Kummer Trio with The Chris McDonald Orchestra - Christmas in the City (2005) FLAC (image +. 100 Greatest Breakfast Songs (2019) Flac. ERYKAH BADU - Mama's Gun [2000] Motown / FLAC (tracks+. Michael McDonald never disguises what his seventh solo album is: the title Motown makes it clear that this 2003 effort is a tribute to the glory days of Berry Gordy's Detroit empire. Picking up where the first volume of Hip-O Select's monumental The Complete Motown Singles series left off, Vol. 2017 registriert haben, können sich mit den ihnen bekannten Zugangsdaten einloggen. Mary Wells - Bye Bye Baby 2. Money (That's What I Want) - Barrett Strong 4. Where Is The Love? 10. Album's title: The Tamla - Motown Sound! Label: Tamla Motown ‎– 5C 048-90836, Tamla Motown ‎– STML 11055 Type: Vinyl, LP, Compilation, Reissue, Stereo Country: Netherlands Date of released: Category: Funk / Soul Style: Soul ZIP Size MP3: 1689 mb ZIP Size FLAC: 1860 mb Rating: 4. VA - Motown Greatest Hits (3CD, 2019) Flac tracks | 3:31:50 | 1,3 Gb Genre: Funk, Soul, R&B / Label: Universal Music 2019 marks the 60th year of MOTOWN, widely regarded as the greatest, most successful and best loved record label in music and to commemorate this landmark anniversary Motown will be issuing a brand new Greatest Hits compilation featuring 60 tracks from across their enormously. Four Tops - Reach Out I'll Be There flac mp3 album; Smokey Robinson And The Miracles - The Tears Of A Clown / You Must Be Love flac mp3 album; Brenda Holloway - Greatest Hits & Rare Classics flac mp3 album; Various - Tamla Motown Big Hits And Hard To Find Classics - Volume One flac mp3 album. The selections on this compilation were transferred from the original single mixes, which were mixed for AM radio play and 45 RPM singles. Eleanor Rigby - The Four Tops 3. 1133 downloads at 15 mb/s. The Jackson 5 x The Violent Femmes - I Want You Back (Maitre D's Blister Edit) 2. Related Torrents; VA - The Complete Sun Singles - Volume 1 (1994) [FLAC] 841. Hitsville USA: The Motown Singles Collection 1959-1971 is a 1992 four-CD collection of Motown hits, during Motown's golden age when the songs were recorded at its original Detroit studio. Hitsville USA: The Motown Singles Collection 1959–1971 is a 1992 four-CD collection of Motown hits, during Motown's golden age when the songs were recorded at its original Detroit studio. Music Search. 1]PS3 Rip | ISO | DST 64 2. 2 - kings of soul). Pink Floyd - Another Brick In. Motown Junkies presents "Discovering Motown" a Motown radio show. Motown Edits Volume 2 by Maitre D, released 25 March 2020 1. Paying supporters also get unlimited streaming via the free Bandcamp app. 192KB/S MP3 320KB/S MP3 WAV FLAC ALAC AIFF. Ivy Jo - It's Love I Need. November 2010 EAC extraction logfile from 23. Various - Tamla Motown 45 - latest mp3, flac album version. Mix - [HQ-FLAC] Michael Jackson - Billie Jean YouTube. nz/#!s14ADAzA!uXPW350i-Aci_v7wLS0zWtpagRLgwNoSDCVseJ9fx64. 100 Greatest Classic Rock Songs (2019) Flac. Michael McDonald - Motown Two (2004) {SACD ISO + FLAC 24bit/88,2kHz} Posted by mqs / Posted 4 years ago September 1, 2016 Michael McDonald - Motown Two (2004) [2. Preview, buy and download high-quality music downloads of Hello World - The Motown Solo Collection by Michael Jackson from 7digital United Kingdom - We have over 30 million high quality tracks in our store. 36 MB Blue-eyed soul crooner Michael McDonald gave his career a much-needed shot in the arm with 2003's Motown, a commercially well-received collection that matched the one-time Doobie Brother and '80s solo star's rich vocals. Motown ‎- B0012208-02 Format: 10 × CD , Compilation. 24 GB | Genre: Soul Tracks: 19 | Source: Scene. 100 Greatest Breakfast Songs (2019) Flac. Eleanor Rigby - The Four Tops 3. February 2011, 15:48 Michael Jackson & Jackson 5 / The Motown Years CD1. 22 GB (FLAC Stereo) | 3% RAR Recovery Label: Motown | USA | Cat#: B0001194-36 | Genre: Soul, R&B. In an inspired set taking in smoldering ballads, introspective singer-songwriter-style material, and vibrant dance floor numbers, her versatility is evident throughout. Paul's here in the afternoon to play you the best of Soul and Motown. 1kHz] 3 CDS (2008) FLAC R & B 11-09-2019, 07:40 The Stephen Kummer Trio with The Chris McDonald Orchestra - Christmas in the City (2005) FLAC (image +. Stevie Wonder - Can't Do Without Your Love 02:5003. The Supremes - Where Did Our Love Go (02:31) / 2019, 24bit WEB, Various Artists, KaRaMusic. and incorporated as Motown Record Corporation in Detroit, Michigan, United States, on April 14, 1960. flac 20 Neither One Of Us (Wants To Be The First To Say Goodbye). 1 1959-1971 [4 CD] (1992) FLAC Essential Rare Grooves (2018) FLAC The Doobie Brothers) - Motown 2 (2004) SACD + Hi-Res. Disc 1: 1 End Of The RoadBoyz II Men 2 Isn't She LovelyStevie Wonder 3 HelloLionel Richie 4 Where Is The LoveRita Wright 5 How Sweet It Is (To Be Loved By You)Marvin Gaye. VA - The Complete Motown Singles - Vol. Walker & The All Stars (2019, WEB Flac) - Release Date: 2019 Audio Codec: Flac Rip Type: tracks Bitrate: lossless Sample Rate: 16 Bit/44. Mary Wells - Bye Bye Baby 2. HTTP download also available at fast speeds. "The Complete Motown Singles" is a unique collection-guide, an opportunity for those who are not familiar, or are starting to get acquainted with "Motown Sound". Also available in the iTunes Store. Move On Up 5. The Best of Soul and Motown. One of the most dominating forces in the history of popular music, the Motown imprint was more than a label, it was a juggernaut of soul music, a machine so finely honed and working with such efficiency that it wasn’t uncommon for several chart topping hits to be recorded in one session. Mary Wells - I'm So Sorry 5. Michael McDonald never disguises what his seventh solo album is: the title Motown makes it clear that this 2003 effort is a tribute to the glory days of Berry Gordy's Detroit empire. In an inspired set taking in smoldering ballads, introspective singer-songwriter-style material, and vibrant dance floor numbers, her versatility is evident throughout. Motown Greatest Hits (3CD Box Set) (2019) FLAC Genres: FLAC 16 bit / Soul / Funk / RnB / Collection Best Hits 1-11-2019, 03:10 593 aleXs All music Various Motown. Fans of Motown, The Doobie Brothers, and of course, Michael McDonald will love, “Motown”. 12A: 1972 Umělec Různí interpreti Ke stažení ve formátu MP3 a FLAC Obsahuje hity ♫ Money ♫ Shadow ♫ L. Four Tops - Reach Out I'll Be There flac mp3 album; Smokey Robinson And The Miracles - The Tears Of A Clown / You Must Be Love flac mp3 album; Brenda Holloway - Greatest Hits & Rare Classics flac mp3 album; Various - Tamla Motown Big Hits And Hard To Find Classics - Volume One flac mp3 album. Marvin Gaye – Hitsville: The Making Of Motown (Original Motion Picture Soundtrack / Deluxe) 24 bit Hi-Res. The 3CD version of the album features legendary Motown artists including The Supremes, Marvin Gaye, Temptations, Four Tops, Stevie Wonder, Diana Ross, The Jackson 5 and Lionel Richie. DeBarge - Time Will Reveal: The Complete Motown Albums [3CD] (2011) R&B, Soul/Funk, Pop, Motown | EAC Rip | FLAC, Tracks+CUE+LOG+Scans (JPEG) | 03:28:29 h. 14:25 Ain't No Woman (Like The One I Got) 20:40 Inner City Blues. Got To Be There - 03:24 6. cue / 100% log Bitrate: lossless Sample Rate: 16bit/44. Motown, The Complete No. Marvin Gaye - Hitsville: The Making Of Motown (Original Motion Picture Soundtrack / Deluxe) 24 bit Hi-Res. Motown People. Each 11-minute episode incorporates a plotline inspired by the themes and characters of a classic Motown song, and an original version of that song covered. Info Artist : VA Name : Motown 50 Greatest Hits Collection Vol 1 - 8 Label : Motown. Artist: Various Album's title: The Tamla - Motown Sound! Label: Tamla Motown ‎- 5C 048-90836, Tamla Motown ‎- STML 11055 Type: Vinyl, LP, Compilation, Reissue, Stereo Country: Netherlands Date of released: Category: Funk / Soul Style: Soul ZIP Size MP3: 1689 mb ZIP Size FLAC: 1860 mb Rating: 4. The company was incorporated in Detroit on January 12, 1959 under the name Tamla Records. MOTOWN MAGIC follows Ben, a wide-eyed eight-year-old with a big heart and an amazing imagination, who uses his magic paintbrush to bring the street-art decorating his city, Motown, to life. This item: 101 Motown Anthems / Various by VARIOUS ARTISTS Audio CD $9. 1kHz] 3 CDS (2008) FLAC R & B 11-09-2019, 07:40 The Stephen Kummer Trio with The Chris McDonald Orchestra - Christmas in the City (2005) FLAC (image +. 1 > 1-bit/2. 12A: 1972, the Four Tops sing "L. Whether you're new to Motown or a seasoned veteran, you'll find something good here. Move On Up 5. A look at the life of the late pop star Michael Jackson from his early days at Motown Records to the release of his hit 1979 album, Off the Wall. Everything Is Good About You (03:28) 04. Stevie Wonder - Can't Do Without Your Love 02:5003. 0 Tracklist: 01. Long and Winding. ZIP, RAR archives download free. 15 submissions pending; Share. 100 Hits: The Best 60s / Various by VARIOUS ARTISTS Audio CD $9. The original Motown Chartbusters (LPs) were massive in the UK and deserve far better sound. 03 - The Velvelettes - He Was Really Saying Somethin'. All materials on the site are provided for informational purposes only. VA - 101 Motown Anthems (2017) EAC Rip | FLAC (tracks & cue & log) -> 2. Four Tops - Reach Out I'll Be There flac mp3 album; Smokey Robinson And The Miracles - The Tears Of A Clown / You Must Be Love flac mp3 album; Brenda Holloway - Greatest Hits & Rare Classics flac mp3 album; Various - Tamla Motown Big Hits And Hard To Find Classics - Volume One flac mp3 album. 16 GB | 3% RAR Recovery Label: Universal / Motown | Ukraine | Cat#: 0602498632260 | Genre: R&B. Best quality lossless flac music. ERYKAH BADU - Mama's Gun [2000] Motown / FLAC (tracks+. Losslessdl - Download High Definition Music Free. I Wanna Be Where You Are - 03:02 3. Genres: FLAC 16 bit / Soul / Funk / RnB / Collection Best Hits 10-11-2019, 12:02 391 aleXs. Exact Audio Copy V1. Mary Wells - Bye Bye Baby 2. 320KB/S MP3. ALAC Downloads ALAC 176kHz/24bit Download ALAC 192kHz/24bit Download ALAC 44kHz/24bit Download DSD Downloads DSD (Double Rate) 5. Artist: Mary Wells Title: The Early Years: Complete Motown Releases 1960-62 Year Of Release: 2019 Label: Acrobat Records Genre: Soul, RnB, Pop Quality: FLAC (tracks) Total Time: 00:58:51 Total Size: 280 MB 1. Ivy Jo - It's Love I Need. Tango Swinefart 2. Hitsville USA: The Motown Singles Collection 1959–1971 is a 1992 four-CD collection of Motown hits, during Motown's golden age when the songs were recorded at its original Detroit studio. 1kHz] 3 CDS (2008) FLAC. 12A: 1972, the Four Tops sing "L. Album's title: The Tamla - Motown Sound! Label: Tamla Motown ‎– 5C 048-90836, Tamla Motown ‎– STML 11055 Type: Vinyl, LP, Compilation, Reissue, Stereo Country: Netherlands Date of released: Category: Funk / Soul Style: Soul ZIP Size MP3: 1689 mb ZIP Size FLAC: 1860 mb Rating: 4. A decade earlier, Motown dipped their toe in the water with the jumbled Back to Front, which tried desperately to camouflage its nature as a comp with three new songs, which, at 14 tracks, hurt the hit quotient dramatically. A couple of years later, the name was changed. The 3CD version of the album features legendary Motown artists including The Supremes, Marvin Gaye, Temptations, Four Tops, Stevie Wonder, Diana Ross, The Jackson 5 and Lionel Richie. Motown Anthems 2012 [EAC - FLAC](oan) Profile: Motown is a record company originally founded by Berry Gordy, Jr. You Are My Lady 12. VA-Motown_Greatest_Hits-3CD-FLAC-2019-401 FLAC (tracks) 16 bit/ 44,1kHz | Time - 03:28:45 minutes | 1. Motown People. ZIP, RAR archives download free. Motown, The Complete No. Motown ‎– B0012208-02 Format: 10 × CD , Compilation. Directed by Spike Lee. FILE "Various\MOTOWN - The Complete NO. 60MB [Polaris 0092] Patti Page - The Complete Columbia Singles 1962-1970 (2013) 2CDs [FLAC] 537. Also available in the iTunes Store. FLAC 16 bit / Soul / Funk / RnB / Collection Best Hits 1-11-2019, 03:10 589 0 aleXs All albums Various Motown Quality: FLAC 16 bit / 44. Artist: Various Album's title: The Tamla - Motown Sound! Label: Tamla Motown ‎- 5C 048-90836, Tamla Motown ‎- STML 11055 Type: Vinyl, LP, Compilation, Reissue, Stereo Country: Netherlands Date of released: Category: Funk / Soul Style: Soul ZIP Size MP3: 1689 mb ZIP Size FLAC: 1860 mb Rating: 4. Walker & The All Stars - Riding / 2019, Lossless, WEB Flac, KaRaMusic. 1's Disc3\19 - I'll Be There. Gross $116,498,633. Walker & The All Stars (2019, WEB Flac) - Release Date: 2019 Audio Codec: Flac Rip Type: tracks Bitrate: lossless Sample Rate: 16 Bit/44. - Duration: 10:50. 100 Greatest Classic Rock Songs (2019) Flac. Christine Elizabeth Clark (born February 1, 1946), better known as Chris Clark, is an American soul, jazz, and blues singer, who recorded for Motown Records. It is a complete listing of all their singles and albums. Explore releases from the The Complete Motown Singles label. 1's (10CD Box Set) - 2008 (FLAC). 0 Total Size: 1. His pedigree is gloriously-evident as he opens with. Sexual Healing 9. 14:25 Ain't No Woman (Like The One I Got) 20:40 Inner City Blues. 0 Tracklist: 01. Vinyl & HR with tags Motown / There is nothing more disappointing than buying a top-notch audio system, but not having the music that will allow it to shine in all its glory. 0 (converted with foobar2000 to tracks) 24bit/48 kHz | Full Scans included | 806 MB Blue-eyed soul crooner Michael McDonald gave his career a much-needed shot in the arm with 2003's Motown, a commercially well-received collection that matched the one. Tracklist:. Total Size: 3. flac 20 Neither One Of Us (Wants To Be The First To Say Goodbye). Michael McDonald - Motown (2003) [2. Where Is The Love? 10. flac 02 - Got To Be There (Single Version). The PBS version? Will this "exclusive" version be available through Hip-O Select? I don't have television! I bought a PBS box through Rhino Handmade, the worthwhile three-disc set, ROCK RHYTHM & DOO WOP VOLUME 2, which was a good collection of tracks I didn't have on CD; the first volume was more a hodge-podge of the obvious and, for most music collectrs, redundant. Buy Individual Tracks # Track Title Length Format Sample Rate Price; 1: Where Did Our Love Go: 02:31: 192/24: Album only. The 3CD version of the album features legendary Motown artists including The Supremes, Marvin Gaye, Temptations, Four Tops, Stevie Wonder, Diana Ross, The Jackson 5 and Lionel Richie. Christine Elizabeth Clark (born February 1, 1946), better known as Chris Clark, is an American soul, jazz, and blues singer, who recorded for Motown Records. The best place where you can find and download great music in lossless formats, MP3, free. Direct download via HTTP available as well. The Supremes / Baby Love / The Collection Жанр: Soul, R&B, Pop/Rock, Motown Страна-производитель диска: UK Год издания: 2012 Издатель (лейбл): Spectrum Music Номер по каталогу: SPEC2086 Страна: USA Аудиокодек: FLAC (*. 1 kHz (Tracks) Artist: Various Artists. 04:15 You Are My Lady. Hitsville USA: The Motown Singles Collection 1959-1971 is a 1992 four-CD collection of Motown hits, during Motown's golden age when the songs were recorded at its original Detroit studio. 24 GB | Genre: Soul Tracks: 19 | Source: Scene. Cat# Artist Title (Format) Label Cat#. 1's Disc3\18 - Ain't No Mountain High Enough. Motown Greatest Hits (2019) MP3 Driven By The 60s: 100 Essential Driving Songs (5CD) (2019) Flac Todd Rundgren - The Complete Bearsville Albums Collection (13CD Box) (2016) Flac. X Lossless Decoder version 20120407 (140. Total Size: 3. 1 > 1-bit/2. It's great dinner music, study music (or music for studying), relaxation music, music for making love - in other words, music for any time you need something relaxing, mellow, romantic, sexy, or chill. Freedom Records Jazz Jazz albums in mp3 and flac. Get Ready - The Temptations 2. As the first record label created by African American Berry Gordy, Motown-Tamla specialized in promoting black artists to the mainstream of world pop music. 10 GB (FLAC Mch) + 1. MOTOWN MAGIC follows Ben, a wide-eyed eight-year-old with a big heart and an amazing imagination, who uses his magic paintbrush to bring the street-art decorating his city, Motown, to life. 1's Disc3\19 - I'll Be There. Everything Is Good About You (03:28) 04. Highlighting the founding years of Motown, the album celebrates icons such as The Temptations, Marvin Gaye, Smokey Robinson & the Miracles, The Supremes, Martha Reeves & The Vandellas, Stevie Wonder, and more. 192KB/S MP3 320KB/S MP3 WAV FLAC ALAC AIFF. Download Motown Legends - Volume 3 - 1995 [FLAC] [RLG] torrent or any other torrent from Lossless category. Whether you're new to Motown or a seasoned veteran, you'll find something good here. The Flag is a 1986 Rick James album. The Supremes / Baby Love / The Collection Жанр: Soul, R&B, Pop/Rock, Motown Страна-производитель диска: UK Год издания: 2012 Издатель (лейбл): Spectrum Music Номер по каталогу: SPEC2086 Страна: USA Аудиокодек: FLAC (*. Various - Motown Hits Of Gold Vol. Aprovado Jovem Pan Vol 3 Label: Mercury - 553 571-2, PolyGram - 553 571-2 Series: Aprovado Jovem Pan Format: CD, Compilation Country: Brazil Released: 1997. FLAC 16 bit / Soul / Funk / RnB / Collection Best Hits 1-11-2019, 03:10 589 0 aleXs All albums Various Motown Quality: FLAC 16 bit / 44. Albums related to A Loss For Words - Motown Classics. VA-Motown_Greatest_Hits-3CD-FLAC-2019-401 FLAC (tracks) 16 bit/ 44,1kHz | Time - 03:28:45 minutes | 1. and incorporated as Motown Record Corporation in Detroit, Michigan, United States, on April 14, 1960. Release Name: Michael_Mcdonald-Motown_Two-CD-FLAC-2004-FLACME Artist: Michael McDonald Album: Motown Two Genre: Rock Year: 2004 Tracks: 14 Duration: 00:49:53 Size: 361. Genres: FLAC 16 bit / Soul / Funk / RnB / Collection Best Hits 10-11-2019, 12:02 391 aleXs. Posts about Previously Unreleased Tracks written by Paul. Hitsville USA: The Motown Singles Collection 1959-1971 is a 1992 four-CD collection of Motown hits, during Motown's golden age when the songs were recorded at its original Detroit studio. 1 kHz (Tracks) Artist: Various Artists. 1kHz Audio Channels: 2. Barrett Strong - Money (That's What I Want). Buy, preview and download over 30 million tracks in our store. Fans of Motown, The Doobie Brothers, and of course, Michael McDonald will love, “Motown”. 2MHz/256fs Download DSD (Single Rate) 2. Find album reviews, stream songs, credits and award information for The Complete Motown Singles, Vol. Baby, It's You 13. We Can Work It Out - Stevie Wonder. Walker & The All Stars - Riding / 2019, Lossless, WEB Flac, KaRaMusic. Four Tops - Reach Out I'll Be There flac mp3 album; Smokey Robinson And The Miracles - The Tears Of A Clown / You Must Be Love flac mp3 album; Brenda Holloway - Greatest Hits & Rare Classics flac mp3 album; Various - Tamla Motown Big Hits And Hard To Find Classics - Volume One flac mp3 album. VA - Hitsville USA: The Motown Singles Collection Vol. A decade earlier, Motown dipped their toe in the water with the jumbled Back to Front, which tried desperately to camouflage its nature as a comp with three new songs, which, at 14 tracks, hurt the hit quotient dramatically. Purchasable with gift card Buy Digital Track $1 USD or more Their debut record single. The Marvelletes - Please Mr Postman - The Marvelettes 4. 0) XLD extraction logfile from 2012-04-18 14:47:28 +0000 Various Artists / Motown 50 Greatest Hits Collection (Vol. "The Complete Motown Singles" is a unique collection-guide, an opportunity for those who are not familiar, or are starting to get acquainted with "Motown Sound". Fingertips, Part 2 -. 1kHz] 3 CDS (2008) FLAC. Budgey Mel 9. (My Town)," an ode to the city that became Motown's new hometown in 1972. Hand-picked hits, harmonies and hard-hitting soul from the world's greatest record label, specially chosen by Motown historian and writer Steve Devereux. 60MB [Polaris 0092] Patti Page - The Complete Columbia Singles 1962-1970 (2013) 2CDs [FLAC] 537. During this time, the group recorded more hit singles, including "I Feel a Song (In My Heart)", "Part-Time Love", "Love Finds Its Own Way" and the live recording, "The Way We Were/Try to Remember". 01MB ) Motown Singles - CD53-21 - Danny Hernandez & The Ones - As Long As I've Got You. ClubMusicDownload. Marvin Gaye - Hitsville: The Making Of Motown (Original Motion Picture Soundtrack / Deluxe) 24 bit Hi-Res. Request for ceee43 Stevie Wonder - Part-Time Lover (Vinyl 12″ Single - 1985) https://mega. Baby, It's You 13. This article presents the discography of Motown group The Temptations. Motown People. Tracklist: Disc 1: 1 End Of The RoadBoyz II Men 2 Isn’t She LovelyStevie Wonder 3 HelloLionel Richie 4 Where Is The LoveRita Wright 5 How Sweet It Is (To Be Loved By You)Marvin Gaye 6 I Second That EmotionSmokey Robinson & The Miracles 7 Remember MeDiana Ross. 84 GB (ISO) + 3. Tracklist:. Clark became known to Northern Soul fans for hit songs such as 1965's "Do Right Baby Do Right" (by Berry Gordy) and 1966's "Love's Gone Bad" (Holland-Dozier-Holland). Fingertips, Part 2 -. 1 kHz (Tracks) Artist: Various Artists Title: Motown Meets The Beatles Released: 1995 Style: Soul, Funk, R&B RAR Size: 380 Mb Tracklist: 1. 1 1959-1971 [4 CD] (1992) FLAC Essential Rare Grooves (2018) FLAC The Doobie Brothers) - Motown 2 (2004) SACD + Hi-Res. Motown Edits Volume 2 by Maitre D, released 25 March 2020 1. Profile: Series Parent Label: Hip-O Select [l559336] Label. 100 Greatest Classic Rock Songs (2019) Flac. VA - Motown The Musical Originals - 40 Classic Songs That Inspired The Broadway Show! (2015) FLAC/MP3; VA - The Motown Story (2006) VA - Motown The Musical: 40 Classic Songs That Inspired the Musical! (2016) VA - Motown Classics Gold (2005) VA - Hitsville The Making Of Motown (2CD, 2019) Various Artists - Motown Greatest Hits (2019). Mike Clark follows up the 'Detroit Beatdown' collection with this funk dripped four tracker. Marketplace 150 For Sale. Available in Audiophile 96kHz/24bit. The Jackson 5 x The Violent Femmes - I Want You Back (Maitre D's Blister Edit) 2. Martha & The Vandells x Childish Gambino x Nick Bike - Redbone In The Street (Maitre D's Stolen Bike Edit) 3. 0 (converted with foobar2000 to tracks) 24bit/48 kHz | Full Scans included | 806 MB Blue-eyed soul crooner Michael McDonald gave his career a much-needed shot in the arm with 2003's Motown, a commercially well-received collection that matched the one. By the end of 1965, Berry Gordy was scouting to get the group signed to his fabled Motown Records label. 1 > 1-bit/2. Each 11-minute episode incorporates a plotline inspired by the themes and characters of a classic Motown song, and an original version of that song covered. AvaxHome Vinyl & HR category is a place where you can download music with absolutely no compression in Hi-Res FLAC format. The Classic Of Diana Ross flac download Diana Ross & The Supremes - Diana Ross & The Supremes flac download Diana Ross - Diana's Duets flac download Various - Love Motown flac download. MOTOWN MAGIC follows Ben, a wide-eyed eight-year-old with a big heart and an amazing imagination, who uses his magic paintbrush to bring the street-art decorating his city, Motown, to life. High quality Michael Jackson MP3 downloads from 7digital United States. Mary Wells - Bye Bye Baby 2. Download Diana Ross - Motown's Greatest Hits (1992)@flac torrent for free, HD Full Movie Streaming Also Available in Limetorrents. 192KB/S MP3 320KB/S MP3 WAV FLAC ALAC AIFF. Diana Ross & The Supremes With The Temptations - A Bit Of Liverpool / TCB download mp3 flac Various - A Motown Anniversary Collection download mp3 flac Various - Every Great Motown Song: The First 25 Years As Originally Recorded download mp3 flac Rock music. Walker & The All Stars (2019, WEB Flac) - Release Date: 2019 Audio Codec: Flac Rip Type: tracks Bitrate: lossless Sample Rate: 16 Bit/44. Edit Label ; Data Quality Rating: Needs Vote. April 2020 ~ ACHTUNG ~ Alle User, die sich bis einschl. 9: 1969 by Various Artists in mp3, FLAC, ogg, zip album and other supported formats. All materials on the site are provided for informational purposes only. Gross $116,498,633. Hand-picked hits, harmonies and hard-hitting soul from the world's greatest record label, specially chosen by Motown historian and writer Steve Devereux. Four Tops - Reach Out I'll Be There flac mp3 album; Smokey Robinson And The Miracles - The Tears Of A Clown / You Must Be Love flac mp3 album; Brenda Holloway - Greatest Hits & Rare Classics flac mp3 album; Various - Tamla Motown Big Hits And Hard To Find Classics - Volume One flac mp3 album. Artist: VA Title: Motown: The Early Years 1959-62 Year Of Release: 2020 Label: Acrobat Records Genre: Soul, Rhythm and Blues, Pop Quality: FLAC (tracks) Total Time: 03:32:40 Total Size: 847 mb. Album The Complete Motown Albums Umělec Rick James Ke stažení ve formátu MP3 a FLAC Obsahuje hity ♫ 17 ♫ Glow ♫ Unity Ukázky zdarma k poslechu. 21 shares the folk and Motown soul influences of her 2008 debut album 19, but was further inspired by the American country and Southern blues music to which she had been exposed during her 2008-09 North American tour An Evening with Adele. 1 kHz (Tracks) Artist: Various Artists. Budgey Mel 9. 0 (converted with foobar2000 to tracks) 24bit/48 kHz | Full Scans included | 806 MB Blue-eyed soul crooner Michael McDonald gave his career a much-needed shot in the arm with 2003's Motown, a commercially well-received collection that matched the one. After reading, remove the material and purchase licensed version Music lossless for lovers of good sound. 9 Votes: 476 Other formats: APE WMA AAC DMF AUD DTS. Explore releases from the The Complete Motown Singles label. mp3 Derecho & Pereza: "Una prueba de que no existe la nada para los sueños caídos. Eleanor Rigby - The Four Tops 3. Ships from and sold by Amazon. 62 GiB, ULed by eyezin: 12: 3: Audio Stevie Wonder-For Once In My Life-Uptight (1986) [FLAC] Uploaded 02-21 2018, Size 460. Marvin Gaye - Hitsville: The Making Of Motown (Original Motion Picture Soundtrack / Deluxe) 24 bit Hi-Res. 15 submissions pending; Share. 06MB ) Motown Singles - CD16-27 - Marvin Gaye - When I'm Alone I Cry. Download Motown People by Mike Rosales at Juno Download. Motown Anthems 2012 [EAC - FLAC](oan) Profile: Motown is a record company originally founded by Berry Gordy, Jr. It is a complete listing of all their singles and albums. Year Title Artist Type Rating Releases; 1: 2005: The Complete Motown Singles, Volume 1: 1959-1961: Various Artists: Album + Compilation: 2: 2: 2005: The Complete. Direct download via HTTP available as well. The 3CD version of the album features legendary Motown artists including The Supremes, Marvin Gaye, Temptations, Four Tops, Stevie Wonder, Diana Ross, The Jackson 5 and Lionel Richie. VA - Motown Greatest Hits (2019) [FLAC] [DJ] , extratorrent, extratorrents, extratorrent. In an inspired set taking in smoldering ballads, introspective singer-songwriter-style material, and vibrant dance floor numbers, her versatility is evident throughout. 3 Popular music albums MP3 and FLAC download free. The Classic Of Diana Ross flac download Diana Ross & The Supremes - Diana Ross & The Supremes flac download Diana Ross - Diana's Duets flac download Various - Love Motown flac download. Related Torrents; VA - The Complete Sun Singles - Volume 1 (1994) [FLAC] 841. Gross $116,498,633. 14:25 Ain't No Woman (Like The One I Got) 20:40 Inner City Blues. The Supremes - Where Did Our Love Go (02:31) / 2019, 24bit WEB, Various Artists, KaRaMusic. 34:54 I Heard It. November 2010 EAC extraction logfile from 23. 36 MB Blue-eyed soul crooner Michael McDonald gave his career a much-needed shot in the arm with 2003's Motown, a commercially well-received collection that matched the one-time Doobie Brother and '80s solo star's rich vocals. As the first record label created by African American Berry Gordy, Motown-Tamla specialized in promoting black artists to the mainstream of world pop music. 8224 MHz | 56:15 minutes | Scans included | 4,04 GBor FLAC 2. Paul's here in the afternoon to play you the best of Soul and Motown. On our site you can download lossless music for free and without registration, favorite performers in flac format, for fans to listen to vinyl digitization - Vinyl rip, gourmets of the music world who want to listen to. FLAC 16 bit / Soul / Funk / RnB / Collection Best Hits 1-11-2019, 03:10 589 0 aleXs All albums Various Motown Quality: FLAC 16 bit / 44. - Duration: 10:50. Walk In The Night: The Motown 70s Studio Albums by Jr. The company was incorporated in Detroit on January 12, 1959 under the name Tamla Records. The Contours - Do You Love Me. The Complete Motown Recordings 1964-1965. 8 Avalable Formats: ASF AC3 AHX MP3 MP4 DMF Category: R&B Style:- Duration:- Recording Date:- Recording Location:- Release Date:-. 12A: 1972, the Four Tops sing "L. Ne-Yo - Another Kind Of Christmas (2019) {Compound Entertainment/Motown} EAC Rip | FLAC | scans | 235 mb MP3 CBR 320 kbps | RAR | 83 mb Genre: Christmas, soul, R&B. 24 GB 2019 marks the 60th year of MOTOWN, widely regarded as the greatest, most successful and best loved record label in music and to commemorate this landmark anniversary Motown will be issuing a brand new Greatest Hits compilation. Gladys Knight and the Pips join Motown records. Motown Singles - CD60-01 - Marvin Gaye - Mercy Mercy Me (The Ecology). VA - The Complete Motown Singles - Vol. ] Ukázky zdarma k poslechu. flac 03 - Hello. com - Available in 192 kHz / 24-bit AIFF, FLAC high resolution…. 8224 MHz | 56:15 minutes | Scans included | 3,95 GB or FLAC 2. cue / 100% log Bitrate: lossless Sample Rate: 16bit/44. She later co-wrote the screenplay for the 1972 motion picture Lady Sings. 11MB ) Motown Singles - CD19-21 - Oma Heard - Lifetime Man. VA-Motown_Greatest_Hits-3CD-FLAC-2019-401 FLAC (tracks) 16 bit/ 44,1kHz | Time - 03:28:45 minutes | 1. Directed by Spike Lee. Total Size: 3. Motown People. Walker & The All Stars (2019, WEB Flac) - Release Date: 2019 Audio Codec: Flac Rip Type: tracks Bitrate: lossless Sample Rate: 16 Bit/44. 12A: 1972 Disc 1 01:13:18 343,54 MB 01. 8MHz/64fs Download DSD Multichannel 2. Papa's Gotta Brand new Bag 8. The Supremes - Where Did Our Love Go (02:31) / 2019, 24bit WEB, Various Artists, KaRaMusic. Stevie Wonder - Can't Do Without Your Love 02:5003. Michael McDonald - Motown (2003) [2. Barrett Strong - Money (That's What I Want). 84 GB (ISO) + 3. 8224 MHz | 56:15 minutes | Scans included | 3,95 GB or FLAC 2. 24 GB | Genre: Soul Tracks: 19 | Source: Scene. MOTOWN THE MUSICAL. cc, extratorrent ag, extratorrent. Various - Motown Hits Of Gold Vol. flac" WAVE TRACK 19 AUDIO TITLE "I'll Be There" PERFORMER "The Jackson 5" INDEX 01 00:00:00. Highlighting the founding years of Motown, the album celebrates icons such as The Temptations, Marvin Gaye, Smokey Robinson & the Miracles, The Supremes, Martha Reeves & The Vandellas, Stevie Wonder, and more. Various - Rum Punch - Hip Swinging Classics album mp3 flac Folk, Country. 09:26 Just My Imagination. 8224 MHz | 56:15 minutes | Scans included | 3,95 GB or FLAC 2. Hallelujah I Love Her So 2. This item: 101 Motown Anthems / Various by VARIOUS ARTISTS Audio CD $9. The Four Tops x Damian Marley - Standing In the Shadows All Night Blended by Maitre D. Motown Junkies presents "Discovering Motown" a Motown radio show. Let's Get It On 6. Baby I Need Your Loving" is a 1964 hit single recorded by the Four Tops for the Motown label. 1kHz] 3 CDS (2008) FLAC. FLAC 16 bit / Soul / Funk / RnB / Collection Best Hits 1-11-2019, 03:10 589 0 aleXs All albums Various Motown Quality: FLAC 16 bit / 44. ag, download, bittorrent, torrent, torrents. A decade earlier, Motown dipped their toe in the water with the jumbled Back to Front, which tried desperately to camouflage its nature as a comp with three new songs, which, at 14 tracks, hurt the hit quotient dramatically. Diana Ross & The Supremes With The Temptations - A Bit Of Liverpool / TCB download mp3 flac Various - A Motown Anniversary Collection download mp3 flac Various - Every Great Motown Song: The First 25 Years As Originally Recorded download mp3 flac Rock music. Hey Jude - The Temptations 5. flac 19 What's Going On (Single Version - Stereo). Available in Audiophile 96kHz/24bit. com - Available in 192 kHz / 24-bit AIFF, FLAC high resolution…. As the first record label created by African American Berry Gordy, Motown-Tamla specialized in promoting black artists to the mainstream of world pop music. 1]PS3 Rip | ISO | DST 64 2. Directed by Spike Lee. Brogan's here in the afternoon to play you the best of Soul and Motown. 01MB ) Motown Singles - CD17-01 - The Contours - Can You Do it. 3 Popular music albums MP3 and FLAC download free. Filthy Cur Hard Time Walkin' Talkin' Blues 5. The original motion picture soundtrack to the Showtime documentary film "Hitsville: The Making of Motown" features remastered audio. 47 MB,包含52个文件. The Supremes - Where Did Our Love Go (02:31) / 2019, 24bit WEB, Various Artists, KaRaMusic. MP3 320 | FLAC(tracks) | 2h 12 min | Genre: Pop, RB, Soul | 311 881 MB Disc: 1 1. This item: 101 Motown Anthems / Various by VARIOUS ARTISTS Audio CD $9. The Supremes - Where Did Our Love Go (02:31) 02. 74MB; The Complete Motown Singles - [ANT] 13. Dancing In The Street - Martha The Vandellas 3. During this time, the group recorded more hit singles, including "I Feel a Song (In My Heart)", "Part-Time Love", "Love Finds Its Own Way" and the live recording, "The Way We Were/Try to Remember". and incorporated as Motown Record Corporation in Detroit, Michigan, United States, on April 14, 1960. 84 GB (ISO) + 3. Albums related to Various - Motown Superstars Presents Tribute To The Beatles. (My Town)," an ode to the city that became Motown's new hometown in 1972. 47gb | FLAC (separate files) ALL THE MOTOWN SINGLES FROM 1959 thru 1971 This 4-CD box set contains a 68-page booklet featuring artist biographies, track-by-track annotations, a historical Motown timeline, musician credits, rare photos and memorabilia from the Motown archives. 0 Tracklist: 01. By the middle of the year, all Detroit operations closed and Motown now belonged to Los Angeles, and this five-disc box set chronicles the first six months of 1972, the time when Motown was in transition. 08 GB Genre: Motown, Pop-Soul, Disco, Urban | Label: Motown, A Universal Music Company. Quality: FLAC 16 bit / 44. Experience the excellence of Losslessdl. flac 02 - Got To Be There (Single Version). Diana Ross & The Supremes - Farewell download flac; Diana Ross And The Supremes - Reflections download flac. 1 kHz (Tracks) Artist: Various Artists Title: Motown Meets The Beatles Released: 1995 Style: Soul, Funk, R&B RAR Size: 380 Mb Tracklist: 1. Paying supporters also get unlimited streaming via the free Bandcamp app. "The Complete Motown Singles" is a unique collection-guide, an opportunity for those who are not familiar, or are starting to get acquainted with "Motown Sound". Mike Clark follows up the 'Detroit Beatdown' collection with this funk dripped four tracker. 0 (converted with foobar2000 to tracks…. Various - Motown Hits Of Gold Vol. Info Artist : VA Name : Motown 50 Greatest Hits Collection Vol 1 - 8 Label : Motown. Mary Wells - I Don't Want To Take A Chance 4. Michael McDonald - Motown Two (2004) {SACD ISO + FLAC 24bit/88,2kHz} Posted by mqs / Posted 4 years ago September 1, 2016 Michael McDonald - Motown Two (2004) [2. All music Various Motown. Motown Anthems 2012 [EAC - FLAC](oan) Profile: Motown is a record company originally founded by Berry Gordy, Jr. 24 GB | Genre: Soul Tracks: 19 | Source: Scene. High quality Michael Jackson MP3 downloads from 7digital United States. ZIP RAR archives available. Got To Be There - 03:24 6. Boomkat Limited Second Floor, Swan Building 20 Swan Street Manchester M4 5JW United Kingdom Tel: +44 (0) 161 832 2565 [email protected] The Complete Motown Singles, Vol. Album/Track Details. It is a complete listing of all their singles and albums. Tracklist: Disc 1: 1 End Of The RoadBoyz II Men 2 Isn’t She LovelyStevie Wonder 3 HelloLionel Richie 4 Where Is The LoveRita Wright 5 How Sweet It Is (To Be Loved By You)Marvin Gaye 6 I Second That EmotionSmokey Robinson & The Miracles 7 Remember MeDiana Ross. Artist: Various Artists Title Of Album: The Complete Motown Singles - Vol 12B: 1972 Year Of Release: 2013 Label (Catalog#): Hip-O Select [B0019213-02] Country: International Genre: Soul, Funk, Rhythm & Blues, Soul Rock Quality: FLAC (*tracks,cue,log) Bitrate: Lossless Time: 5:37:07 Full Size: 2. 0 (converted with foobar2000 to tracks…. 36 MB Blue-eyed soul crooner Michael McDonald gave his career a much-needed shot in the arm with 2003's Motown, a commercially well-received collection that matched the one-time Doobie Brother and '80s solo star's rich vocals. Walker & The All Stars (2019, WEB Flac) - Release Date: 2019 Audio Codec: Flac Rip Type: tracks Bitrate: lossless Sample Rate: 16 Bit/44. Year Of Release: 2019 Format: Flac, Tracks Bitrate: lossless, 24bit Sample Rate: 48000Hz Audio Channels: 2. The album also features material from. A couple of years later, the name was changed. A look at the life of the late pop star Michael Jackson from his early days at Motown Records to the release of his hit 1979 album, Off the Wall. Shop Around - The Miracles 5. Ne-Yo - Another Kind Of Christmas (2019) {Compound Entertainment/Motown} EAC Rip | FLAC | scans | 235 mb MP3 CBR 320 kbps | RAR | 83 mb Genre: Christmas, soul, R&B. One of the most dominating forces in the history of popular music, the Motown imprint was more than a label, it was a juggernaut of soul music, a machine so finely honed and working with such efficiency that it wasn’t uncommon for several chart topping hits to be recorded in one session. Boomkat Limited Second Floor, Swan Building 20 Swan Street Manchester M4 5JW United Kingdom Tel: +44 (0) 161 832 2565 [email protected] VA - Hitsville USA: The Motown Singles Collection Vol. Related Torrents; VA - The Complete Sun Singles - Volume 1 (1994) [FLAC] 841. Brogan's here in the afternoon to play you the best of Soul and Motown. Albums related to A Loss For Words - Motown Classics. X Lossless Decoder version 20120407 (140. 1 > 1-bit/2. The Supremes - Where Did Our Love Go (02:31) 02. Ain't No Woman (Like The One I Got) 3. 2017 registriert haben, können sich mit den ihnen bekannten Zugangsdaten einloggen. The selections on this compilation were transferred from the original single mixes, which were mixed for AM radio play and 45 RPM singles. By the middle of the year, all Detroit operations closed and Motown now belonged to Los Angeles, and this five-disc box set chronicles the first six months of 1972, the time when Motown was in transition. Hand-picked hits, harmonies and hard-hitting soul from the world's greatest record label, specially chosen by Motown historian and writer Steve Devereux. Each 11-minute episode incorporates a plotline inspired by the themes and characters of a classic Motown song, and an original version of that song covered. Walker & The All Stars - Riding / 2019, Lossless, WEB Flac, KaRaMusic. After reading, remove the material and purchase licensed version Music lossless for lovers of good sound. 3 Popular music albums MP3 and FLAC download free. top/file/Chuck Jackson - Motown Rarities (2020) Flac. Torrential Times 3. The Complete Motown Recordings 1964-1965. Ain't Nobody Debut EP from Soul Tubes: Five trombones who play Funk, Soul & Motown!. The album was named after the age of the singer during its production. Regular mp3s are dominating the market and it's pretty hard to find music in Lossless (FLAC) format. 12A: 1972, the Four Tops sing "L. Cat# Artist Title (Format) Label Cat#. More of the Songs You Love. 09:26 Just My Imagination. Скачивай торрент VA - Motown Greatest Hits (3CD) (2019) FLAC - Бесплатно и без регистрации!. 34:54 I Heard It. Walker & The All Stars (2019, WEB Flac) - Release Date: 2019 Audio Codec: Flac Rip Type: tracks Bitrate: lossless Sample Rate: 16 Bit/44. Paying supporters also get unlimited streaming via the free Bandcamp app. The Isley Brothers x Calvin Harris - This Old Slide 4. 47 MB,包含52个文件. 192KB/S MP3 320KB/S MP3 WAV FLAC ALAC AIFF. Two songs into The Complete Motown Singles, Vol. Quality: FLAC 16 bit / 44. LATEST EPISODES: Episode 75. FLAC 16 bit / Soul / Funk / RnB / Collection Best Hits 1-11-2019, 03:10 589 0 aleXs All albums Various Motown Quality: FLAC 16 bit / 44. Listen to this and millions more tracks online. The Miracles - Shop Around - The Miracles 3. Dancing In The Street - Martha The Vandellas 3. 1 kHz Tracklist: 01. Album The Complete Motown Albums Umělec Rick James Ke stažení ve formátu MP3 a FLAC Obsahuje hity ♫ 17 ♫ Glow ♫ Unity Ukázky zdarma k poslechu. "The Complete Motown Singles" is a unique collection-guide, an opportunity for those who are not familiar, or are starting to get acquainted with "Motown Sound". Luckily, when Marvin Gaye undertook a whole album about the beast with two backs, he had a quarter-century of R&B tradition in his corner and a Motown band so mellifluously aflame they'd have made the crassest come-on sound persuasive. The Motown Collection (12 SHM CD Box Set) (2011) [FLAC|Lossless] Гость » 12 янв 2015, 18:03 Michael Jackson & Jackson 5 - Dear Michael. Motown Album Discography, Part 1 (1961-1981) by David Edwards and Mike Callahan Last update: August 7, 2012 The first two dozen albums (600-624), have been originally issued — with only a few exceptions — with either the car logo or Motown rectangular logo (see below) on the front of the record jacket. Barrett Strong - Money (That's What I Want) - Barrett Strong 2. 1 kHz Tracklist: 01. Hard Day's Night - The Supremes 2. 22 GB (FLAC Stereo) | 3% RAR Recovery Label: Motown | USA | Cat#: B0001194-36 | Genre: Soul, R&B. Episode 74. VA - Motown Greatest Hits - 3CD - 2019 (FLAC) File format: FLAC (Tracks) Quality: Lossless Frequency: 44,100 khz Genre: Funk, Soul, R&B Disc: 1 1. Ships from and sold by Amazon. VA - Hitsville USA: The Motown Singles Collection Vol. As the first record label created by African American Berry Gordy, Motown-Tamla specialized in promoting black artists to the mainstream of world pop music. Motown Greatest Hits Year Of Release: 2019 Genre: Soul Format: Flac, Tracks +. Walker & The All Stars (2019, WEB Flac) - Release Date: 2019 Audio Codec: Flac Rip Type: tracks Bitrate: lossless Sample Rate: 16 Bit/44. HTTP download also available at fast speeds. Available in Audiophile 96kHz/24bit. cue), lossless Since the arrival of Erykah Badu onto the neo-soul scene back in 1997 with Baduizm, commercial music stood up and took notice with an onslaught of similar artists reaching comparable peaks of mainstream success. The Complete MOTOWN SINGLES [FLAC] 14 BOX SET -69 CD'S Various-The Complete Motown Singles | Vol.